TeKno
Posts: 1
Joined: Thu Oct 09, 2014 4:30 pm

New user, problem detected and Feature Request

Thu Oct 09, 2014 5:14 pm

Good morning, I am a new user.
It’s few days since I have started using the Bandicut program and I must say it is excellent for cutting videos and movies. The program works properly. I wanted to ask if in the next releases there will be the possibility to save the project in order to give the opportunity to those who have little time to modify it several times before the final data saving. Then I wanted to point out that I have spotted some problems with some videos: as soon as I complete the saving process of the modified video (without recoding) the video is not displayed. This occurs only with the coding type in attachement.

General
Complete name : C:\Video\Sample.mp4
Format : MPEG-4
Format profile : Base Media / Version 2
Codec ID : mp42
File size : 2.25 GiB
Duration : 2h 5mn
Overall bit rate : 2 568 Kbps
ContentType : Unknown Type

Video
ID : 1
Format : AVC
Format/Info : Advanced Video Codec
Format profile : Baseline@L3.0
Format settings, CABAC : No
Format settings, ReFrames : 1 frame
Muxing mode : Container profile=Baseline@4.1
Codec ID : avc1
Codec ID/Info : Advanced Video Coding
Duration : 2h 5mn
Bit rate : 2 441 Kbps
Width : 1 280 pixels
Height : 720 pixels
Display aspect ratio : 16:9
Frame rate mode : Constant
Frame rate : 23.976 fps
Original frame rate : 23.000 fps
Color space : YUV
Chroma subsampling : 4:2:0
Bit depth : 8 bits
Scan type : Progressive
Bits/(Pixel*Frame) : 0.110
Stream size : 2.14 GiB (95%)
Writing library : 4§wwÀùm / Xmw4§ww
Language : English

Audio
ID : 2
Format : AAC
Format/Info : Advanced Audio Codec
Format profile : LC
Codec ID : 40
Duration : 2h 5mn
Bit rate mode : Constant
Bit rate : 122 Kbps
Channel(s) : 2 channels
Channel positions : Front: L R
Sampling rate : 48.0 KHz
Compression mode : Lossy
Stream size : 109 MiB (5%)
Language : English.

I hope that my information may be useful.
See you soon. ;)

User avatar
Bandicam Company
Site Admin
Posts: 7124
Joined: Mon Dec 20, 2010 12:19 pm

Re: New user, problem detected and Feature Request

Fri Oct 10, 2014 1:44 pm

Hello!
I wanted to ask if in the next releases there will be the possibility to save the project in order to give the opportunity to those who have little time to modify it several times before the final data saving
.
The current version of Bandicut is very simple. So, we may support the feature in the distant future.
as soon as I complete the saving process of the modified video (without recoding) the video is not displayed.
We will forward your message to the Bandicut developer.

Thank you for letting us know.

User avatar
Bandicam Company
Site Admin
Posts: 7124
Joined: Mon Dec 20, 2010 12:19 pm

Re: New user, problem detected and Feature Request

Sun Oct 12, 2014 12:02 am

Hello again,

Could you please send a link to the video file to bandicut@bandicam.com?

You may send the video file through the storage services below:
- Dropbox (2GB~): http://www.dropbox.com
- Onedrive (15GB~): http://onedrive.live.com

Return to “Bandicut - General Discussion”

Who is online

Users browsing this forum: No registered users and 2 guests